David Gilmour: Live At Pompeii (2017)[Part 1][BRRip 1080p x264 by...

  • Category Music
  • Type Video
  • Language English
  • Total size 10.6 GB
  • Uploaded By alE13
  • Downloads 268
  • Last checked 6 days ago
  • Date uploaded 1 week ago
  • Seeders 30
  • Leechers 28

Infohash : 0FFE70EE754C945F575DE2CB30279B5843451800



http://www.imdb.com/title/tt7359702/

premiera: 2017
produkcja: Eng
reżyseria: Gavin Elder
wytwórnia: Sony Music
gatunek: progresiwe rock, koncert
czas: part 1: 1h 8min

45 years after Pink Floyd’s David Gilmour filmed ‘Live At Pompeii’ in the legendary
Roman Amphitheatre there, he returned for two spectacular shows in July 2016, part
of the year-long tour in support of his No.1 album ‘Rattle That Lock’. The performances
were the first-ever rock concerts for an audience in the stone Roman amphitheatre, and,
for two nights only, the 2,600-strong crowd stood exactly where gladiators would have
fought in the first century AD.

‘David Gilmour Live At Pompeii’ is an audio-visual spectacle, featuring lasers, pyrotechnics
and a huge circular screen on which specially-created films complement selected songs, but
paramount above all is the astonishing music and stellar performances. The show includes
songs from throughout David's career, solo and with Pink Floyd, including 'One Of These Days',
the only song that was also performed at the band’s 1971 show, and six songs from ‘Rattle that Lock’,
as well as two from 2006’s ‘On An Island’.

more:

http://www.davidgilmour.com/

7 i 8 lipca 2016 roku w legendarnym amfiteatrze w Pompejach odbyły się dwa
widowiskowe koncerty Davida Gilmoura. Artysta wrócił na scenę starożytnego
obiektu u stóp wulkanu Wezuwiusz 45 lat po swoim pierwszym występie w tym
miejscu, zarejestrowanym na filmie Pink Floyd Live at Pompeii.

Koncerty w ramach trasy Rattle That Lock Tour były pierwszym show z udziałem
publiczności, jakie odbyły się w wybudowanym w 90 r p.n.e. rzymskim amfiteatrze,
arenie walk gladiatorów do czasu wybuchu Wezuwiusza w 79 roku naszej ery.
"To magiczne miejsce. Powrót tutaj, zobaczenie tej sceny, było czymś przytłaczającym.
To miejsce pełne duchów..." - mówił o antycznej budowli, w której odbył się
koncert, David Gilmour.






tracklist:

Part 1:
5 A.M. (3.54)
Rattle That Lock (4.40)
Faces Of Stone (6.01)
What Do You Want From Me (4.34)
The Blue (6.30)
The Great Gig In The Sky (6.01)
A Boat Lies Waiting (4.55)
Wish You Were Here (5.18)
Money (8.12)
In Any Tongue (8.02)
High Hopes (9.58)

dane techniczne:David Gilmour - Live At Pompeii (2017)-alE13.mkv
Format : Matroska
Format version : Version 4 / Version 2
File size : 8.35 GiB
Duration : 1 h 8 min
Overall bit rate : 17.5 Mb/s
Movie name : David Gilmour: Live At Pompeii (2017)-alE13
Encoded date : UTC 2017-10-12 07:45:50
Writing application : mkvmerge v8.1.0 ('Psychedelic Postcard') 64bit
Writing library : libebml v1.3.1 + libmatroska v1.4.2
Cover : Yes
Attachments : Cover.jpg

Video
ID : 1
Format : AVC
Format/Info : Advanced Video Codec
Format profile : [email protected]
Format settings, CABAC : Yes
Format settings, RefFrames : 2 frames
Codec ID : V_MPEG4/ISO/AVC
Duration : 1 h 8 min
Bit rate : 12.3 Mb/s
Width : 1 920 pixels
Height : 1 080 pixels
Display aspect ratio : 16:9
Frame rate mode : Constant
Frame rate : 23.976 (24000/1001) FPS
Color space : YUV
Chroma subsampling : 4:2:0
Bit depth : 8 bits
Scan type : Progressive
Bits/(Pixel*Frame) : 0.247
Stream size : 5.85 GiB (70%)
Title : David Gilmour: Live At Pompeii (2017)-alE13
Writing library : x264 core 142
Default : Yes
Forced : No
Color range : Limited
Color primaries : BT.709
Transfer characteristics : BT.709
Matrix coefficients : BT.709

Audio #1
ID : 2
Format : PCM
Codec ID : A_PCM/INT/LIT
Duration : 1 h 8 min
Bit rate mode : Constant
Bit rate : 4 608 kb/s
Channel(s) : 2 channels
Sampling rate : 96.0 kHz
Frame rate : 32.000 FPS (3000 SPF)
Bit depth : 24 bits
Stream size : 2.20 GiB (26%)
Title : _PCM
Language : English
Default : No
Forced : No

Audio #2
ID : 3
Format : AC-3
Format/Info : Audio Coding 3
Format settings, Endianness : Big
Codec ID : A_AC3
Duration : 1 h 8 min
Bit rate mode : Constant
Bit rate : 640 kb/s
Channel(s) : 6 channels
Channel positions : Front: L C R, Side: L R, LFE
Sampling rate : 48.0 kHz
Frame rate : 31.250 FPS (1536 SPF)
Bit depth : 16 bits
Compression mode : Lossy
Stream size : 312 MiB (4%)
Title : David Gilmour: Live At Pompeii (2017)-alE13_AC3
Language : English
Service kind : Complete Main
Default : No
Forced : No

Menu
00:00:00.000 : en:1.1 (1) 5 A.M.
00:03:12.859 : en:1.2 (2) Rattle That Lock
00:08:34.513 : en:1.3 (3) Faces Of Stone
00:14:36.208 : en:1.4 (4) What Do You Want From Me
00:19:10.691 : en:1.5 (5) The Blue
00:25:41.289 : en:1.6 (6) The Great Gig In The Sky
00:31:43.443 : en:1.7 (7) A Boat Lies Waiting
00:36:39.572 : en:1.8 (8) Wish You Were Here
00:41:57.931 : en:1.9 (9) Money
00:50:11.008 : en:1.10 (10) In Any Tongue
00:58:14.365 : en:1.11 (11) High Hopes


Files:

David Gilmour - Live At Pompeii (2017)-alE13 info
  • Nostalgie11.jpg (185.8 KB)
  • 1.jpg (183.0 KB)
  • Torrent Downloaded From devil-torrents.txt (0.1 KB)
  • Torrent downloaded from demonoid.pw.txt (0.0 KB)
  • Torrent Downloaded From immortaltorrent.txt (0.0 KB)
  • Torrent Downloaded From ex-torrents-org.txt (0.0 KB)
  • Torrent Downloaded From super-torrent.txt (0.0 KB)
  • Torrent Downloaded From islandinnovation.org.txt (0.0 KB)
  • Torrent Downloaded From bitnova.info.txt (0.0 KB)
  • David Gilmour - Live At Pompeii (2017)-alE13.mkv (8.4 GB)
  • David Gilmour - Live At Pompeii (2017)-alE13_DTS.mka (2.3 GB)
  • Sample.mkv (41.7 MB)
  • Cover.jpg (756.8 KB)
  • Poster.jpg (109.7 KB)
  • txt.jpg (87.2 KB)

There are currently no comments. Feel free to leave one :)

Code:

  • http://tracker.devil-torrents.pl/announce
  • http://tracker.torrentyorg.pl/announce
  • udp://tracker.opentrackr.org:1337/announce
  • udp://tracker.leechers-paradise.org:6969/announce
  • udp://tracker.ilibr.org:80/announce
  • udp://tracker.coppersurfer.tk:6969/announce
  • udp://p4p.arenabg.ch:1337/announce
  • udp://inferno.demonoid.pw:3391/announce